音像图书论坛

 找回密码
 中文注册
搜索

周杰伦 - 范特西(10周年珍藏版)_WAV_CD音质_附抓轨报告

[复制链接]
发表于 2021-9-23 12:37:52 | 显示全部楼层 |阅读模式


                               
登录/注册后可看大图


曲目列表:
01 爱在西元前
02 爸我回来了
03 简单爱
04 忍者
05 开不了口
06 上海一九四三
07 对不起
08 威廉古堡
09 双截棍
10 安静

抓轨报告:

  1. Exact Audio Copy V1.0 beta 1 from 15. November 2010

  2. EAC 抓取日志文件从18. 十月 2012, 15:33

  3. 周杰伦 / 范特西(10周年珍藏版)

  4. 使用驱动器  :PLEXTOR CD-R   PREMIUM2   Adapter: 0  ID: 1

  5. 读取模式     : 保护
  6. 使用精确流    : 是
  7. 废除音频缓冲   : 是
  8. 使用 C2 指针 : 否

  9. 读取偏移校正                : 30
  10. 读取 Lead-In 和 Lead-Out : 否
  11. 用静音填充抓取中丢失偏移的采样       : 是
  12. 去除首尾静音块               : 否
  13. 在 CRC 计算中使用了空样本       : 否
  14. 已用接口                  : 已安装外部 ASPI 接口

  15. 所用输出格式 : 内部 WAV 函数
  16. 样本格式   : 44.100 Hz;16 Bit;立体声


  17. 被抓轨 CD 的 TOC

  18.      音轨 |    开始    |    长度    |  起始扇区  |  结尾扇区  
  19.     --------------------------------------------
  20.       1 |  0:00.00 |  3:54.19 |      0 |  17568
  21.       2 |  3:54.19 |  3:55.48 |  17569 |  35241
  22.       3 |  7:49.67 |  4:30.74 |  35242 |  55565
  23.       4 | 12:20.66 |  2:38.39 |  55566 |  67454
  24.       5 | 14:59.30 |  4:44.73 |  67455 |  88827
  25.       6 | 19:44.28 |  3:15.60 |  88828 | 103512
  26.       7 | 23:00.13 |  3:45.31 | 103513 | 120418
  27.       8 | 26:45.44 |  3:56.14 | 120419 | 138132
  28.       9 | 30:41.58 |  3:21.01 | 138133 | 153208
  29.      10 | 34:02.59 |  5:34.18 | 153209 | 178276


  30. 范围状态及错误

  31. 已选择范围

  32.      文件名 D:\自抓\AA\周杰伦 - 范特西(10周年珍藏版).wav

  33.      峰值电平 100.0 %
  34. 0.1 X
  35.      范围质量 100.0 %
  36.      复制 CRC 5FB6D3A8
  37.      复制成功

  38. 没有错误发生


  39. AccurateRip 概要

  40. 音轨  1  数据库中未见
  41. 音轨  2  数据库中未见
  42. 音轨  3  数据库中未见
  43. 音轨  4  数据库中未见
  44. 音轨  5  数据库中未见
  45. 音轨  6  数据库中未见
  46. 音轨  7  数据库中未见
  47. 音轨  8  数据库中未见
  48. 音轨  9  数据库中未见
  49. 音轨 10  数据库中未见

  50. 没有任何音轨出现在 AccurateRip 数据库中

  51. 状态报告结尾
复制代码


下载:
游客,如果您要查看本帖隐藏内容请回复


购买主题 已有 3 人购买  本主题需向作者支付 10 音乐币 才能浏览
回复

使用道具 举报

发表于 2021-9-24 17:35:50 | 显示全部楼层
周董经典 听下试试
回复 支持 反对

使用道具 举报

发表于 2021-9-24 17:48:37 | 显示全部楼层
我要下载听一下
回复 支持 反对

使用道具 举报

发表于 2021-10-4 11:21:40 | 显示全部楼层
下载欣赏!!!
回复

使用道具 举报

您需要登录后才可以回帖 登录 | 中文注册

本版积分规则

QQ|小黑屋|手机版|Archiver|音像图书论坛  

GMT+8, 2021-10-24 10:24 , Processed in 0.153508 second(s), 26 queries .

Powered by Discuz! X3.4

© 2001-2017 Comsenz Inc.

快速回复 返回顶部 返回列表